World Music Forum
 
PříjemGalleryCalendarFAQRegistracePřihlášení

Share | 
 

 Dr. Max - Dárek

Zobrazit předchozí téma Zobrazit následující téma Goto down 
AutorZpráva
pavelse
HLAVNÍ MODERÁTOR
HLAVNÍ MODERÁTOR
avatar

Male Příspěvky : 8069
Místo : závětrná strana továrního komína
Registrace : 04. 08. 06

PříspěvekPředmět: Dr. Max - Dárek   11/11/2010, 14:40

Už jsem to tady poptával - naposledy před rokem, ale stále ji sháním ... a to skladbu "DÁREK" ... zhruba před 25 lety jsem ji slyšel ve Větrníku a chtěl bych ji slyšet zas
v textu bylo něco na způsob ... zazvonila u dveří a řekla "jsem tvůj dárek" ....

byl bych moc rád kdybyste ji někdo někde vylovil - díky moc

_________________
singlové a albové hitparády NSR, USA, UK, ITÁLIE a RAKOUSKA z let 80-89 nejdeš zde:
www.hitparady80s.estranky.cz

najdeš zde také hitparády z PLR, radia Luxembourg, životopisy- Divine, Bobby Orlando, NENA
NEW - NEW - NEW .....každotýdenní hudební tipy ........ NEW - NEW - NEW
Návrat nahoru Goto down
http://www.hitparady80s.estranky.cz/
atyp
GIGA PŘISPĚVATEL
GIGA PŘISPĚVATEL
avatar

Příspěvky : 29572
Pisces Věk : 60
Registrace : 16. 07. 08

PříspěvekPředmět: Re: Dr. Max - Dárek   13/11/2010, 14:38

Nasiel som v serialy bigbit aspon kusok tejto pesnicky ,aspon taka ochutnavka.

http://www.youtube.com/watch?v=ouz4TznNfX4
Návrat nahoru Goto down
pavelse
HLAVNÍ MODERÁTOR
HLAVNÍ MODERÁTOR
avatar

Male Příspěvky : 8069
Místo : závětrná strana továrního komína
Registrace : 04. 08. 06

PříspěvekPředmět: Re: Dr. Max - Dárek   14/11/2010, 06:50

díky, no právě tato ukázka mě k této skladbě zase vrátila (při prvním vysílání seriálu)

_________________
singlové a albové hitparády NSR, USA, UK, ITÁLIE a RAKOUSKA z let 80-89 nejdeš zde:
www.hitparady80s.estranky.cz

najdeš zde také hitparády z PLR, radia Luxembourg, životopisy- Divine, Bobby Orlando, NENA
NEW - NEW - NEW .....každotýdenní hudební tipy ........ NEW - NEW - NEW
Návrat nahoru Goto down
http://www.hitparady80s.estranky.cz/
pavelse
HLAVNÍ MODERÁTOR
HLAVNÍ MODERÁTOR
avatar

Male Příspěvky : 8069
Místo : závětrná strana továrního komína
Registrace : 04. 08. 06

PříspěvekPředmět: Re: Dr. Max - Dárek   18/7/2011, 05:46

pokud jsem to pochopil dobře, tak tuhle skladbu by měla vysílat, pro mě neznámá, TV Muzika CS a to 3x do konce tohoto měsíce - nemohl byste to někdo nějak nahrát ?

http://www.muzikacs.cz/song/?2950

díky moc

_________________
singlové a albové hitparády NSR, USA, UK, ITÁLIE a RAKOUSKA z let 80-89 nejdeš zde:
www.hitparady80s.estranky.cz

najdeš zde také hitparády z PLR, radia Luxembourg, životopisy- Divine, Bobby Orlando, NENA
NEW - NEW - NEW .....každotýdenní hudební tipy ........ NEW - NEW - NEW
Návrat nahoru Goto down
http://www.hitparady80s.estranky.cz/
pavelse
HLAVNÍ MODERÁTOR
HLAVNÍ MODERÁTOR
avatar

Male Příspěvky : 8069
Místo : závětrná strana továrního komína
Registrace : 04. 08. 06

PříspěvekPředmět: Re: Dr. Max - Dárek   18/7/2011, 10:11

tak jsem video sehnal - ve formátu ts (h264)
megaupload.com CZIV3B63

dokážete z toho někdo udělat mp3 ?
díky moc

specifikace souboru
Format : MPEG-TS
File size : 43.5 MiB
Duration : 3mn 10s
Overall bit rate : 1 919 Kbps
Video #4019
ID : 4019 (0xFB3)
Menu ID : 5059 (0x13C3)
Format : AVC
Format/Info : Advanced Video Codec
Format profile : High@L3.0
Format settings, CABAC : Yes
Format settings, ReFrames : 4 frames
Duration : 3mn 10s
Bit rate : 1 593 Kbps
Width : 704 pixels
Height : 576 pixels
Display aspect ratio : 4:3
Frame rate : 25.000 fps
Resolution : 24 bits
Colorimetry : 4:2:0
Scan type : MBAFF
Bits/(Pixel*Frame) : 0.157
Stream size : 36.2 MiB (83%)
Audio #4179
ID : 4179 (0x1053)
Menu ID : 5059 (0x13C3)
Format : MPEG Audio
Format version : Version 1
Format profile : Layer 2
Duration : 3mn 10s
Bit rate mode : Constant
Bit rate : 192 Kbps
Channel(s) : 2 channels
Sampling rate : 48.0 KHz
Resolution : 16 bits
Video delay : 29ms
Stream size : 4.36 MiB (10%)
Language : Czech

_________________
singlové a albové hitparády NSR, USA, UK, ITÁLIE a RAKOUSKA z let 80-89 nejdeš zde:
www.hitparady80s.estranky.cz

najdeš zde také hitparády z PLR, radia Luxembourg, životopisy- Divine, Bobby Orlando, NENA
NEW - NEW - NEW .....každotýdenní hudební tipy ........ NEW - NEW - NEW
Návrat nahoru Goto down
http://www.hitparady80s.estranky.cz/
dulicek
MEGA PŘISPĚVATEL
MEGA PŘISPĚVATEL
avatar

Příspěvky : 155
Registrace : 16. 04. 07

PříspěvekPředmět: Re: Dr. Max - Dárek   18/7/2011, 13:48

Odkaz:

http://www.uloz.to/9720023/dr-max-darek-h264-luco-mp3


Datový tok 192 kbps
Frekvence 48000 Hz
Kanály 2
Vybraný kodek ffmp3
Návrat nahoru Goto down
pavelse
HLAVNÍ MODERÁTOR
HLAVNÍ MODERÁTOR
avatar

Male Příspěvky : 8069
Místo : závětrná strana továrního komína
Registrace : 04. 08. 06

PříspěvekPředmět: Re: Dr. Max - Dárek   18/7/2011, 14:17

díky moc Wink

_________________
singlové a albové hitparády NSR, USA, UK, ITÁLIE a RAKOUSKA z let 80-89 nejdeš zde:
www.hitparady80s.estranky.cz

najdeš zde také hitparády z PLR, radia Luxembourg, životopisy- Divine, Bobby Orlando, NENA
NEW - NEW - NEW .....každotýdenní hudební tipy ........ NEW - NEW - NEW
Návrat nahoru Goto down
http://www.hitparady80s.estranky.cz/
Sponsored content




PříspěvekPředmět: Re: Dr. Max - Dárek   

Návrat nahoru Goto down
 
Dr. Max - Dárek
Zobrazit předchozí téma Zobrazit následující téma Návrat nahoru 
Strana 1 z 1

Povolení tohoto fóra:Nemůžete odpovídat na témata v tomto fóru
*** M U S I C - C L U B *** :: Hledám hudbu - video :: Music / Video Requests - HLEDÁM HUDBU / VIDEO-
Přejdi na: